<?xml version="1.0" standalone="no"?>
<!DOCTYPE svg PUBLIC "-//W3C//DTD SVG 1.1//EN" "http://www.w3.org/Graphics/SVG/1.1/DTD/svg11.dtd" >
<svg xmlns="http://www.w3.org/2000/svg">
<metadata>Generated by IcoMoon</metadata>
<defs>
<font id="Tin-Canny-Icons" horiz-adv-x="1024">
<font-face units-per-em="1024" ascent="896" descent="-128" />
<missing-glyph horiz-adv-x="1024" />
<glyph unicode="&#x20;" horiz-adv-x="0" d="" />
<glyph unicode="&#xe900;" glyph-name="user" horiz-adv-x="896" d="M628 320c-17.334 0-39.996-4.666-67.996-14-18.666-5.334-34-9.334-46-12-20-4-42-6-66-6s-46 2-66 6c-12 2.666-27.334 6.666-46 12-28 9.334-50.666 14-68 14-48 0-92.666-12-134-36s-74-56.666-98-98-36-86-36-134v-84c0-26.666 9.334-49.332 28-67.998s41.332-28 67.998-28h704c26.666 0 49.332 9.334 67.998 28s28 41.332 28 67.998v84c0 48-12 92.666-36 134s-56.666 74-98 98-86 36-134 36zM832.004-32c0-9.334-3-17-9-23s-13.666-9-23-9h-704c-9.334 0-17 3-23 9s-9 13.666-9 23v84c0 56 20 104 60 144s88 60 144 60c10.666 0 27.332-3.334 49.998-10 45.334-14.666 88.668-22 130.002-22s84.668 7.334 130.002 22c22.666 6.666 39.332 10 49.998 10 56 0 104-20 144-60s60-88 60-144v-84zM448.004 384c46.666 0 89.666 11.334 129 34s70.334 53.666 93 93 34 82.334 34 129-11.334 89.666-34 129-53.666 70.334-93 93-82.334 34-129 34-89.666-11.334-129-34-70.334-53.666-93-93-34-82.334-34-129 11.334-89.666 34-129 53.666-70.334 93-93 82.334-34 129-34zM448.004 832c53.334 0 98.668-18.666 136.002-56s56-82.668 56-136.002-18.666-98.668-56-136.002-82.668-56-136.002-56-98.668 18.666-136.002 56-56 82.668-56 136.002 18.666 98.668 56 136.002 82.668 56 136.002 56z" />
<glyph unicode="&#xe901;" glyph-name="book" horiz-adv-x="896" d="M712 576h-336c-6.666 0-12.332 2.334-16.998 7s-7 10.332-7 16.998v16c0 6.666 2.334 12.332 7 16.998s10.332 7 16.998 7h336c6.666 0 12.332-2.334 16.998-7s7-10.332 7-16.998v-16c0-6.666-2.334-12.332-7-16.998s-10.332-7-16.998-7zM736 472v16c0 6.666-2.334 12.332-7 16.998s-10.332 7-16.998 7h-336c-6.666 0-12.332-2.334-16.998-7s-7-10.332-7-16.998v-16c0-6.666 2.334-12.332 7-16.998s10.332-7 16.998-7h336c6.666 0 12.332 2.334 16.998 7s7 10.332 7 16.998zM866-64h6c6.666 0 12.332-2.334 16.998-7s7-10.332 7-16.998v-16c0-6.666-2.334-12.332-7-16.998s-10.332-7-16.998-7h-712c-44 0-81.666 15.666-113 47s-47 69-47 113v704c0 44 15.666 81.666 47 113s69 47 113 47h688c13.334 0 24.668-4.666 34.002-14s14-20.668 14-34.002v-736c0-9.334-2.666-18-8-26s-12.668-14-22.002-18c-4-17.334-6-38.668-6-64.002s2-48 6-68zM256 128h576v704h-576v-704zM64 96c28 21.334 59.998 31.998 95.998 31.998h32v704h-32c-26.666 0-49.332-9.334-67.998-28s-28-41.332-28-67.998v-640zM807.998-64.002c-6.666 42.666-6.666 85.334 0 128h-648c-30.666 0-54.332-6.334-70.998-19s-25-27.666-25-45 8.334-32.334 25-45 40.332-19 70.998-19h648z" />
<glyph unicode="&#xe902;" glyph-name="chart-bar" d="M1000 64c6.666 0 12.334-2.336 17-7.002s7-10.332 7-16.998v-16c0-6.666-2.334-12.332-7-16.998s-10.332-7-16.998-7h-976c-6.666 0-12.332 2.334-16.998 7s-7 10.332-7 16.998v720c0 6.666 2.334 12.332 7 16.998s10.332 7 16.998 7h16c6.666 0 12.332-2.334 16.998-7s7-10.332 7-16.998v-680h936zM320.002 203.998v168c0 2.666-1.334 5.332-4 7.998s-5.332 4-7.998 4h-40c-2.666 0-5.332-1.334-7.998-4s-4-5.332-4-7.998v-168c0-2.666 1.334-5.332 4-7.998s5.332-4 7.998-4h40c2.666 0 5.332 1.334 7.998 4s4 5.332 4 7.998zM896.002 203.998v488c0 2.666-1.334 5.332-4 7.998s-5.332 4-7.998 4h-40c-2.666 0-5.332-1.334-7.998-4s-4-5.332-4-7.998v-488c0-2.666 1.334-5.332 4-7.998s5.332-4 7.998-4h40c2.666 0 5.332 1.334 7.998 4s4 5.332 4 7.998zM704.002 203.998v296c0 2.666-1.334 5.332-4 7.998s-5.332 4-7.998 4h-40c-2.666 0-5.332-1.334-7.998-4s-4-5.332-4-7.998v-296c0-2.666 1.334-5.332 4-7.998s5.332-4 7.998-4h40c2.666 0 5.332 1.334 7.998 4s4 5.332 4 7.998zM512.002 203.998v424c0 2.666-1.334 5.332-4 7.998s-5.332 4-7.998 4h-40c-2.666 0-5.332-1.334-7.998-4s-4-5.332-4-7.998v-424c0-2.666 1.334-5.332 4-7.998s5.332-4 7.998-4h40c2.666 0 5.332 1.334 7.998 4s4 5.332 4 7.998z" />
<glyph unicode="&#xe903;" glyph-name="user-regular" horiz-adv-x="896" d="M628 288c-17.334 0-39.996-4.666-67.996-14-18.666-5.334-34-9.334-46-12-20-4-42-6-66-6s-46 2-66 6c-12 2.666-27.334 6.666-46 12-28 9.334-50.666 14-68 14-48 0-92.666-12-134-36s-74-56.666-98-98-36-86-36-134v-52c0-26.666 9.334-49.332 28-67.998s41.332-28 67.998-28h704c26.666 0 49.332 9.334 67.998 28s28 41.332 28 67.998v52c0 48-12 92.666-36 134s-56.666 74-98 98-86 36-134 36zM800.004-32h-704v52c0 46.666 17 87 51 121s74.334 51 121 51c6.666 0 20-2.666 40-8 49.334-16 96.334-24 141-24s91 8 139 24c18.666 5.334 32 8 40 8 46.666 0 87-17 121-51s51-74.334 51-121v-52zM448.004 320c52 0 100 13 144 39s79 61 105 105 39 92 39 144-13 100-39 144-61 79-105 105-92 39-144 39-100-13-144-39-79-61-105-105-39-92-39-144 13-100 39-144 61-79 105-105 92-39 144-39zM448.004 800c53.334 0 98.668-18.666 136.002-56s56-82.668 56-136.002-18.666-98.668-56-136.002-82.668-56-136.002-56-98.668 18.666-136.002 56-56 82.668-56 136.002 18.666 98.668 56 136.002 82.668 56 136.002 56z" />
<glyph unicode="&#xe904;" glyph-name="check-regular" d="M872 730l-526-528-194 194c-4 5.334-9.334 8-16 8s-12.666-2.666-18-8l-56-56c-5.334-5.334-8-11.334-8-18s2.666-12 8-16l266-268c5.334-4 11.334-6 18-6s12 2 16 6l600 600c5.334 5.334 8 11.334 8 18s-2.666 12-8 16l-56 58c-5.334 4-11.334 6-18 6s-12-2-16-6z" />
<glyph unicode="&#xe905;" glyph-name="times-regular" horiz-adv-x="640" d="M416 384l214 216c6.666 5.334 10 12.668 10 22.002s-3.334 16.668-10 22.002l-50 50c-5.334 6.666-12.668 10-22.002 10s-16.668-3.334-22.002-10l-216-214-216 214c-5.334 6.666-12.668 10-22.002 10s-16.668-3.334-22.002-10l-50-50c-6.666-5.334-10-12.668-10-22.002s3.334-16.668 10-22.002l214-216-214-216c-6.666-5.334-10-12.668-10-22.002s3.334-16.668 10-22.002l50-50c5.334-6.666 12.668-10 22.002-10s16.668 3.334 22.002 10l216 214 216-214c5.334-6.666 12.668-10 22.002-10s16.668 3.334 22.002 10l50 50c6.666 5.334 10 12.668 10 22.002s-3.334 16.668-10 22.002z" />
<glyph unicode="&#xe906;" glyph-name="book-regular" horiz-adv-x="896" d="M256 592v64c0 4 1.666 7.666 5 11s7 5 11 5h416c4 0 7.666-1.666 11-5s5-7 5-11v-64c0-4-1.666-7.666-5-11s-7-5-11-5h-416c-4 0-7.666 1.666-11 5s-5 7-5 11zM272 416h416c4 0 7.666 1.666 11 5s5 7 5 11v64c0 4-1.666 7.666-5 11s-7 5-11 5h-416c-4 0-7.666-1.666-11-5s-5-7-5-11v-64c0-4 1.666-7.666 5-11s7-5 11-5zM870 96c-4-12-6-33.334-6-64s2-52 6-64c8-1.334 14.334-5 19-11s7-13 7-21v-32c0-9.334-3-17-9-23s-13.666-9-23-9h-704c-44 0-81.666 15.666-113 47s-47 69-47 113v704c0 44 15.666 81.666 47 113s69 47 113 47h704c9.334 0 17-3 23-9s9-13.666 9-23v-736c0-8-2.334-15-7-21s-11-9.666-19-11zM788 96l-628-0.004c-17.334 0-32.334-6.334-45-19s-19-27.666-19-45 6.334-32.334 19-45 27.666-19 45-19h628c-2.666 17.334-4 38.668-4 64.002s1.334 46.668 4 64.002zM800 799.996h-640c-17.334 0-32.334-6.334-45-19s-19-27.666-19-45v-558c20 9.334 41.334 14 64 14h640v608z" />
<glyph unicode="&#xe907;" glyph-name="check-circle-regular" d="M512 880c-89.334 0-172-22.334-248-67s-136.334-105-181-181-67-158.666-67-248 22.334-172 67-248 105-136.334 181-181 158.666-67 248-67 172 22.334 248 67 136.334 105 181 181 67 158.666 67 248-22.334 172-67 248-105 136.334-181 181-158.666 67-248 67zM512 784c72 0 138.666-18 200-54s110-84.666 146-146 54-128 54-200-18-138.666-54-200-84.666-110-146-146-128-54-200-54-138.666 18-200 54-110 84.666-146 146-54 128-54 200 18 138.666 54 200 84.666 110 146 146 128 54 200 54zM792 524l-44 44c-5.334 5.334-11.334 8-18 8s-12-2-16-6l-284-282-118 122c-5.334 4-11.334 6-18 6s-12-2-16-6l-46-46c-5.334-4-8-9.334-8-16s2.666-12.666 8-18l182-182c4-5.334 9.334-8 16-8s12.666 2.666 18 8l344 342c5.334 4 8 9.334 8 16s-2.666 12.666-8 18z" />
<glyph unicode="&#xe908;" glyph-name="exclamation-circle-regular" d="M512 880c-89.334 0-172-22.334-248-67s-136.334-105-181-181-67-158.666-67-248 22.334-172 67-248 105-136.334 181-181 158.666-67 248-67 172 22.334 248 67 136.334 105 181 181 67 158.666 67 248-22.334 172-67 248-105 136.334-181 181-158.666 67-248 67zM512-16c-72 0-138.666 18-200 54s-110 84.666-146 146-54 128-54 200 18 138.666 54 200 84.666 110 146 146 128 54 200 54 138.666-18 200-54 110-84.666 146-146 54-128 54-200-18-138.666-54-200-84.666-110-146-146-128-54-200-54zM596 192c0-22.666-8.334-42.332-25-58.998s-36.332-25-58.998-25-42.332 8.334-58.998 25-25 36.332-25 58.998 8.334 42.332 25 58.998 36.332 25 58.998 25 42.332-8.334 58.998-25 25-36.332 25-58.998zM434 614l11.996-272c1.334-5.334 4.334-10.334 9-15s9.666-7 15-7h84c5.334 0 10.334 2.334 15 7s7.666 9.666 9 15l12 272c1.334 8-0.332 14.334-4.998 19s-11 7-19 7h-108c-8 0-14.334-2.334-19-7s-6.332-11-4.998-19z" />
<glyph unicode="&#xe909;" glyph-name="chart-bar-regular" d="M1000 96c6.666 0 12.334-2.336 17-7.002s7-10.332 7-16.998v-48c0-6.666-2.334-12.332-7-16.998s-10.332-7-16.998-7h-976c-6.666 0-12.332 2.334-16.998 7s-7 10.332-7 16.998v720c0 6.666 2.334 12.332 7 16.998s10.332 7 16.998 7h48c6.666 0 12.332-2.334 16.998-7s7-10.332 7-16.998v-648h904zM288.002 215.998v144c0 6.666-2.334 12.332-7 16.998s-10.332 7-16.998 7h-48c-6.666 0-12.332-2.334-16.998-7s-7-10.332-7-16.998v-144c0-6.666 2.334-12.332 7-16.998s10.332-7 16.998-7h48c6.666 0 12.332 2.334 16.998 7s7 10.332 7 16.998zM480.002 215.998v400c0 6.666-2.334 12.332-7 16.998s-10.332 7-16.998 7h-48c-6.666 0-12.332-2.334-16.998-7s-7-10.332-7-16.998v-400c0-6.666 2.334-12.332 7-16.998s10.332-7 16.998-7h48c6.666 0 12.332 2.334 16.998 7s7 10.332 7 16.998zM672.002 215.998v272c0 6.666-2.334 12.332-7 16.998s-10.332 7-16.998 7h-48c-6.666 0-12.332-2.334-16.998-7s-7-10.332-7-16.998v-272c0-6.666 2.334-12.332 7-16.998s10.332-7 16.998-7h48c6.666 0 12.332 2.334 16.998 7s7 10.332 7 16.998zM864.002 215.998v464c0 6.666-2.334 12.332-7 16.998s-10.332 7-16.998 7h-48c-6.666 0-12.332-2.334-16.998-7s-7-10.332-7-16.998v-464c0-6.666 2.334-12.332 7-16.998s10.332-7 16.998-7h48c6.666 0 12.332 2.334 16.998 7s7 10.332 7 16.998z" />
<glyph unicode="&#xe90a;" glyph-name="user-bold" horiz-adv-x="896" d="M448 383.998c46.666 0 89.666 11.334 129 34s70.334 53.666 93 93 34 82.334 34 129-11.334 89.666-34 129-53.666 70.334-93 93-82.334 34-129 34-89.666-11.334-129-34-70.334-53.666-93-93-34-82.334-34-129 11.334-89.666 34-129 53.666-70.334 93-93 82.334-34 129-34zM628 319.998h-34c-46.666-21.334-95.332-32-145.998-32s-99.332 10.666-145.998 32h-34c-48 0-92.666-12-134-36s-74-56.666-98-98-36-86-36-134v-84c0-26.666 9.334-49.332 28-67.998s41.332-28 67.998-28h704c26.666 0 49.332 9.334 67.998 28s28 41.332 28 67.998v84c0 48-12 92.666-36 134s-56.666 74-98 98-86 36-134 36z" />
<glyph unicode="&#xe90b;" glyph-name="check-bold" d="M348 17.998l-334 332c-9.334 9.334-14 21.334-14 36s4.666 26.666 14 36l74 72c9.334 10.666 21 16 35 16s26.334-5.334 37-16l224-224 480 480c10.666 10.666 23 16 37 16s25.666-5.334 35-16l74-72c9.334-9.334 14-21.334 14-36s-4.666-26.666-14-36l-590-588c-9.334-10.666-21.334-16-36-16s-26.666 5.334-36 16z" />
<glyph unicode="&#xe90c;" glyph-name="times-bold" horiz-adv-x="704" d="M486 383.998l200 200c12 12 18 26.666 18 44s-6 32.668-18 46.002l-44 44c-13.334 12-28.668 18-46.002 18s-32-6-44-18l-200-200-200 200c-12 12-26.666 18-44 18s-32.668-6-46.002-18l-44-44c-12-13.334-18-28.668-18-46.002s6-32 18-44l200-200-200-200c-12-12-18-26.666-18-44s6-32.668 18-46.002l44-44c13.334-12 28.668-18 46.002-18s32 6 44 18l200 200 200-200c12-12 26.666-18 44-18s32.668 6 46.002 18l44 44c12 13.334 18 28.668 18 46.002s-6 32-18 44z" />
<glyph unicode="&#xe90d;" glyph-name="book-bold" horiz-adv-x="896" d="M896 175.998v672.006c0 13.334-4.666 24.668-14 34.002s-20.668 14-34.002 14h-656c-53.334 0-98.668-18.666-136.002-56s-56-82.668-56-136.002v-640c0-53.334 18.666-98.668 56-136.002s82.668-56 136.002-56h656c13.334 0 24.668 4.666 34.002 14s14 20.668 14 34.002v32c0 14.666-6 27.332-18 37.998-4 14.666-6 39.332-6 73.998s2 59.332 6 73.998c12 9.334 18 22 18 38zM256 628.004c0 2.666 1.334 5.332 4 7.998s5.332 4 7.998 4h424c2.666 0 5.332-1.334 7.998-4s4-5.332 4-7.998v-40c0-2.666-1.334-5.332-4-7.998s-5.332-4-7.998-4h-424c-2.666 0-5.332 1.334-7.998 4s-4 5.332-4 7.998v40zM256 500.004c0 2.666 1.334 5.332 4 7.998s5.332 4 7.998 4h424c2.666 0 5.332-1.334 7.998-4s4-5.332 4-7.998v-40c0-2.666-1.334-5.332-4-7.998s-5.332-4-7.998-4h-424c-2.666 0-5.332 1.334-7.998 4s-4 5.332-4 7.998v40zM762 0.004l-570 0.004c-17.334 0-32.334 6.334-45 19s-19 27.666-19 45 6.334 32.334 19 45 27.666 19 45 19h570c-1.334-17.334-2-38.668-2-64.002s0.666-46.668 2-64.002z" />
<glyph unicode="&#xe90e;" glyph-name="check-circle-bold" d="M1008 383.998c0-89.334-22.334-172-67-248s-105-136.334-181-181-158.666-67-248-67-172 22.334-248 67-136.334 105-181 181-67 158.666-67 248 22.334 172 67 248 105 136.334 181 181 158.666 67 248 67 172-22.334 248-67 136.334-105 181-181 67-158.666 67-248zM454 121.998l367.988 368c6.666 5.334 10 12.668 10 22.002s-3.334 16.668-10 22.002l-44 46c-6.666 6.666-14.332 10-22.998 10s-16.332-3.334-22.998-10l-300-300-140 140c-6.666 6.666-14.332 10-22.998 10s-16.332-3.334-22.998-10l-44-46c-6.666-5.334-10-12.668-10-22.002s3.334-16.668 10-22.002l208-208c5.334-6.666 12.668-10 22.002-10s16.668 3.334 22.002 10z" />
<glyph unicode="&#xe90f;" glyph-name="check" horiz-adv-x="896" d="M828 712l-562-560-198 198c-4 5.334-9.334 8-16 8s-12-2.666-16-8l-24-22c-4-5.334-6-11.334-6-18s2-12 6-16l238-238c5.334-5.334 11-8 17-8s11.666 2.666 17 8l600 600c4 4 6 9.334 6 16s-2 12.666-6 18l-24 22c-4 5.334-9.334 8-16 8s-12-2.666-16-8z" />
<glyph unicode="&#xe910;" glyph-name="times" horiz-adv-x="640" d="M388 384l248 248c2.666 2.666 4 6.332 4 10.998s-1.334 8.332-4 10.998l-46 46c-2.666 2.666-6.332 4-10.998 4s-8.332-1.334-10.998-4l-248-248-248 248c-2.666 2.666-6.332 4-10.998 4s-8.332-1.334-10.998-4l-46-46c-2.666-2.666-4-6.332-4-10.998s1.334-8.332 4-10.998l248-248-248-248c-2.666-2.666-4-6.332-4-10.998s1.334-8.332 4-10.998l46-46c2.666-2.666 6.332-4 10.998-4s8.332 1.334 10.998 4l248 248 248-248c2.666-2.666 6.332-4 10.998-4s8.332 1.334 10.998 4l46 46c2.666 2.666 4 6.332 4 10.998s-1.334 8.332-4 10.998z" />
<glyph unicode="&#xe911;" glyph-name="exclamation-circle-bold" d="M1008 383.998c0-89.334-22.334-172-67-248s-105-136.334-181-181-158.666-67-248-67-172 22.334-248 67-136.334 105-181 181-67 158.666-67 248 22.334 172 67 248 105 136.334 181 181 158.666 67 248 67 172-22.334 248-67 136.334-105 181-181 67-158.666 67-248zM512 283.998c-25.334 0-47-9-65-27s-27-39.666-27-65 9-47 27-65 39.666-27 65-27 47 9 65 27 27 39.666 27 65-9 47-27 65-39.666 27-65 27zM424 613.998l16-272c0-5.334 2.334-10.334 7-15s10.332-7 16.998-7h96c6.666 0 12.332 2.334 16.998 7s7 9.666 7 15l16 272c0 8-2.334 14.334-7 19s-10.332 7-16.998 7h-128c-6.666 0-12.332-2.334-16.998-7s-7-11-7-19z" />
<glyph unicode="&#xe912;" glyph-name="chart-bar-bold" d="M1000 127.998c6.666 0 12.334-2.336 17-7.002s7-10.332 7-16.998v-80c0-6.666-2.334-12.332-7-16.998s-10.332-7-16.998-7h-976c-6.666 0-12.332 2.334-16.998 7s-7 10.332-7 16.998v720c0 6.666 2.334 12.332 7 16.998s10.332 7 16.998 7h80c6.666 0 12.332-2.334 16.998-7s7-10.332 7-16.998v-616h872zM384.002 215.996v144c0 6.666-2.334 12.332-7 16.998s-10.332 7-16.998 7h-80c-6.666 0-12.332-2.334-16.998-7s-7-10.332-7-16.998v-144c0-6.666 2.334-12.332 7-16.998s10.332-7 16.998-7h80c6.666 0 12.332 2.334 16.998 7s7 10.332 7 16.998zM768.002 215.996v272c0 6.666-2.334 12.332-7 16.998s-10.332 7-16.998 7h-80c-6.666 0-12.332-2.334-16.998-7s-7-10.332-7-16.998v-272c0-6.666 2.334-12.332 7-16.998s10.332-7 16.998-7h80c6.666 0 12.332 2.334 16.998 7s7 10.332 7 16.998zM576.002 215.996v400c0 6.666-2.334 12.332-7 16.998s-10.332 7-16.998 7h-80c-6.666 0-12.332-2.334-16.998-7s-7-10.332-7-16.998v-400c0-6.666 2.334-12.332 7-16.998s10.332-7 16.998-7h80c6.666 0 12.332 2.334 16.998 7s7 10.332 7 16.998zM960.002 215.996v464c0 6.666-2.334 12.332-7 16.998s-10.332 7-16.998 7h-80c-6.666 0-12.332-2.334-16.998-7s-7-10.332-7-16.998v-464c0-6.666 2.334-12.332 7-16.998s10.332-7 16.998-7h80c6.666 0 12.332 2.334 16.998 7s7 10.332 7 16.998z" />
<glyph unicode="&#xe913;" glyph-name="angle-down" horiz-adv-x="512" d="M240 242l-232 236c-5.334 4-8 9.334-8 16s2 12.666 6 18l16 14c4 5.334 9.334 8 16 8s12.666-2.666 18-8l200-204 200 204c5.334 4 11.334 6 18 6s12-2 16-6l16-14c4-5.334 6-11.334 6-18s-2-12-6-16l-232-236c-5.334-4-11.334-6-18-6s-12.666 2-18 6h2z" />
<glyph unicode="&#xe914;" glyph-name="check-circle" d="M512 880c-89.334 0-172-22.334-248-67s-136.334-105-181-181-67-158.666-67-248 22.334-172 67-248 105-136.334 181-181 158.666-67 248-67 172 22.334 248 67 136.334 105 181 181 67 158.666 67 248-22.334 172-67 248-105 136.334-181 181-158.666 67-248 67zM512-48c-77.334 0-149.334 19.334-216 58s-119.332 91-157.998 157-58 138-58 216 19.334 150.334 58 217 91 119.332 157 157.998 138 58 216 58 150.334-19.334 217-58 119.332-91 157.998-157 58-138 58-216-19.334-150.334-58-217-91-119.332-157-157.998-138.334-58-217-58zM796 502l-362-358c-4-5.334-9.334-8-16-8s-12.666 2.666-18 8l-172 174c-4 4-6 9.334-6 16s2 12.666 6 18l18 16c4 4 9.334 6 16 6s12.666-2 18-6l138-140 326 326c5.334 4 11.334 6 18 6s12-2.666 16-8l18-16c4-5.334 6-11.334 6-18s-2-12-6-16z" />
<glyph unicode="&#xe915;" glyph-name="exclamation-circle" d="M512 816c77.334 0 149.336-19.334 216.002-58s119.332-91 157.998-157 58-138.334 58-217-19.334-151-58-217-91-118.334-157-157-138.334-58-217-58-151 19.334-217 58-118.334 91-157 157-58 138.334-58 217 19.334 151 58 217 91 118.334 157 157 138.334 58 217 58zM512.002 880c-89.334 0-172-22.334-248-67s-136.334-105-181-181-67-158.666-67-248 22.334-172 67-248 105-136.334 181-181 158.666-67 248-67 172 22.334 248 67 136.334 105 181 181 67 158.666 67 248-22.334 172-67 248-105 136.334-181 181-158.666 67-248 67zM490.002 640l44-0.002c8 0 14.334-2.334 19-7s6.332-10.332 4.998-16.998l-14-336c0-6.666-2.334-12.332-7-16.998s-10.332-7-16.998-7h-16c-6.666 0-12.332 2.334-16.998 7s-7 9.666-7 15l-14 338c-1.334 6.666 0.332 12.332 4.998 16.998s11 7 19 7zM512.002 215.998c-16 0-29.334-5.334-40-16s-16-24-16-40 5.334-29.334 16-40 24-16 40-16 29.334 5.334 40 16 16 24 16 40-5.334 29.334-16 40-24 16-40 16z" />
<glyph unicode="&#xe916;" glyph-name="spinner-third" d="M920 148l-14 8.002c-5.334 4-9 9-11 15s-1 11.666 3 17c32 65.334 47 134.668 45 208.002s-21 141.334-57 204-85.334 113.332-148 151.998-130.666 60-204 64c-5.334 0-10.334 2.334-15 7s-7 10.332-7 16.998v16c0 6.666 2.666 12.332 8 16.998s11.334 7 18 7c82.666-5.334 160-29.668 232-73.002s129-101.334 171-174 64-151.332 66-235.998-15.666-164.332-53-238.998c-4-5.334-9-9-15-11s-12.334-1.666-19 1z" />
<glyph unicode="&#xe917;" glyph-name="spinner-third-regular" d="M920 148l-41.998 24.002c-5.334 4-9 9-11 15s-1 11.666 3 17c29.334 60 43 123.666 41 191s-19.666 130.334-53 189-78.668 105.666-136.002 141-120 55-188 59c-5.334 0-10.334 2.334-15 7s-7 10.332-7 16.998v48c0 6.666 2.666 12.332 8 16.998s11.334 7 18 7c82.666-5.334 160-29.668 232-73.002s129-101.334 171-174 64-151.332 66-235.998-15.666-164.332-53-238.998c-4-5.334-9-9-15-11s-12.334-1.666-19 1z" />
<glyph unicode="&#xe918;" glyph-name="spinner-third-bold" d="M912 151.998l-53.998 32.006c-8 4-13.334 10-16 18s-2 16 2 24c26.666 54.666 38.666 112.332 36 172.998s-19 117-49 169-70.666 94.334-122 127-107 51-167 55c-9.334 1.334-16.668 5-22.002 11s-8 13-8 21v64c0 9.334 3.334 17.334 10 24s14.666 9.332 24 7.998c82.666-5.334 159-29.668 229-73.002s125.666-100.668 167-172.002 63.334-148.334 66-231-14-161.332-50-235.998c-4-8-10.666-13.334-20-16s-18-2-26 2z" />
<glyph unicode="&#xe919;" glyph-name="angle-up" horiz-adv-x="512" d="M274 526l232-236c4-4 6-9.334 6-16s-2-12.666-6-18l-16-14c-4-5.334-9.334-8-16-8s-12.666 2.666-18 8l-200 204-200-204c-5.334-4-11.334-6-18-6s-12 2-16 6l-14 14c-5.334 5.334-8 11.334-8 18s2 12 6 16l234 236c4 4 9.334 6 16 6s12.666-2 18-6z" />
<glyph unicode="&#xe91a;" glyph-name="angle-left" horiz-adv-x="384" d="M50 402l236 232c4 4 9.334 6 16 6s12.666-2 18-6l14-16c5.334-4 8-9.334 8-16s-2.666-12.666-8-18l-204-200 204-200c4-5.334 6-11.334 6-18s-2-12-6-16l-14-14c-5.334-5.334-11.334-8-18-8s-12 2.666-16 8l-236 232c-4 4-6 9.334-6 16s2 12.666 6 18z" />
<glyph unicode="&#xe91b;" glyph-name="angle-right" horiz-adv-x="384" d="M334 368l-236-232c-4-5.334-9.334-8-16-8s-12.666 2.666-18 8l-14 14c-5.334 4-8 9.334-8 16s2.666 12.666 8 18l204 200-204 200c-4 5.334-6 11.334-6 18s2 12 6 16l14 16c5.334 4 11.334 6 18 6s12-2 16-6l236-232c4-5.334 6-11.334 6-18s-2-12.666-6-18v2z" />
<glyph unicode="&#xe91c;" glyph-name="angle-left-regular" horiz-adv-x="384" d="M8 402l294 296c5.334 4 11 6 17 6s11.666-2 17-6l40-40c4-5.334 6-11.334 6-18s-2-12-6-16l-238-240 238-240c4-4 6-9.334 6-16s-2-12.666-6-18l-40-38c-5.334-5.334-11-8-17-8s-11.666 2-17 6l-294 298c-4 4-6 9.334-6 16s2 12.666 6 18z" />
<glyph unicode="&#xe91d;" glyph-name="angle-right-regular" horiz-adv-x="384" d="M376 368l-294-296c-5.334-5.334-11-8-17-8s-11.666 2-17 6l-40 40c-4 5.334-6 11.334-6 18s2 12 6 16l238 240-238 240c-4 4-6 9.334-6 16s2 12.666 6 18l40 40c5.334 4 11 6 17 6s11.666-2 17-6l294-296c4-5.334 6-11.334 6-18s-2-12.666-6-18v2z" />
<glyph unicode="&#xe91e;" glyph-name="angle-up-regular" horiz-adv-x="640" d="M338 568l296-294c4-5.334 6-11 6-17s-2-11.666-6-17l-40-40c-5.334-4-11.334-6-18-6s-12 2-16 6l-240 238-240-238c-4-4-9.334-6-16-6s-12.666 2-18 6l-38 40c-5.334 5.334-8 11-8 17s2 11.666 6 17l298 294c4 4 9.334 6 16 6s12.666-2 18-6z" />
<glyph unicode="&#xe91f;" glyph-name="angle-down-regular" horiz-adv-x="640" d="M304 200l-296 294c-5.334 5.334-8 11-8 17s2 11.666 6 17l40 40c5.334 4 11.334 6 18 6s12-2 16-6l240-238 240 238c4 4 9.334 6 16 6s12.666-2 18-6l40-40c4-5.334 6-11 6-17s-2-11.666-6-17l-296-294c-5.334-4-11.334-6-18-6s-12.666 2-18 6h2z" />
<glyph unicode="&#xe920;" glyph-name="angle-left-bold" horiz-adv-x="512" d="M64 417.998l272 272.002c9.334 9.334 20.668 14 34.002 14s24.668-4.666 34.002-14l44-46c9.334-9.334 14-20.668 14-34.002s-4.666-24-14-32l-192-194 192-192c9.334-9.334 14-20.668 14-34.002s-4.666-24.668-14-34.002l-44-46c-9.334-9.334-20.668-14-34.002-14s-24.668 4.666-34.002 14l-272 272c-9.334 9.334-14 20.668-14 34.002s4.666 24.668 14 34.002z" />
<glyph unicode="&#xe921;" glyph-name="angle-right-bold" horiz-adv-x="512" d="M448 349.998l-272-272.004c-9.334-9.334-20.668-14-34.002-14s-24.668 4.666-34.002 14l-44 46c-9.334 9.334-14 20.668-14 34.002s4.666 24.668 14 34.002l192 192-192 192c-9.334 9.334-14 20.668-14 34.002s4.666 24.668 14 34.002l44 46c9.334 9.334 20.668 14 34.002 14s24.668-4.666 34.002-14l272-272c9.334-9.334 14-20.668 14-34.002s-4.666-24.668-14-34.002z" />
<glyph unicode="&#xe922;" glyph-name="angle-up-bold" horiz-adv-x="640" d="M354 575.998l272.002-272c9.334-9.334 14-20.668 14-34.002s-4.666-24.668-14-34.002l-46-44c-9.334-9.334-20.668-14-34.002-14s-24 4.666-32 14l-194 192-192-192c-9.334-9.334-20.668-14-34.002-14s-24.668 4.666-34.002 14l-46 44c-9.334 9.334-14 20.668-14 34.002s4.666 24.668 14 34.002l272 272c9.334 9.334 20.668 14 34.002 14s24.668-4.666 34.002-14z" />
<glyph unicode="&#xe923;" glyph-name="angle-down-bold" horiz-adv-x="640" d="M286 191.998l-272.004 272c-9.334 9.334-14 20.668-14 34.002s4.666 24.668 14 34.002l46 44c9.334 9.334 20.668 14 34.002 14s24.668-4.666 34.002-14l192-192 192 192c9.334 9.334 20.668 14 34.002 14s24.668-4.666 34.002-14l46-44c9.334-9.334 14-20.668 14-34.002s-4.666-24.668-14-34.002l-272-272c-9.334-9.334-20.668-14-34.002-14s-24.668 4.666-34.002 14z" />
<glyph unicode="&#xf099;" glyph-name="twitter" d="M918.74 592.572c0.65-9.096 0.65-18.195 0.65-27.291 0-277.44-211.166-597.116-597.118-597.116-118.904 0-229.36 34.438-322.274 94.211 16.895-1.947 33.137-2.598 50.68-2.598 98.109 0 188.426 33.137 260.548 89.664-92.264 1.951-169.584 62.377-196.225 145.545 12.996-1.949 25.99-3.248 39.637-3.248 18.842 0 37.686 2.6 55.227 7.146-96.162 19.494-168.285 103.959-168.285 205.968v2.598c27.938-15.594 60.428-25.34 94.861-26.637-56.527 37.686-93.561 102.010-93.561 174.781 0 38.984 10.393 74.721 28.588 105.908 103.309-127.35 258.6-210.516 432.728-219.614-3.248 15.594-5.197 31.836-5.197 48.080 0 115.654 93.564 209.868 209.868 209.868 60.428 0 115.004-25.34 153.342-66.273 47.43 9.096 92.91 26.639 133.197 50.68-15.596-48.732-48.732-89.666-92.264-115.654 42.234 4.547 83.168 16.244 120.852 32.486-28.584-41.582-64.322-78.617-105.256-108.506z" />
<glyph unicode="&#xf09a;" glyph-name="facebook" d="M1008 384.004c0-247.56-181.381-452.76-418.5-490v346.62h115.561l22 143.381h-137.561v93.1c0 39.221 19.221 77.461 80.82 77.461h62.561v122s-56.762 9.68-111.041 9.68c-113.34 0-187.34-68.66-187.34-192.961v-109.279h-126v-143.381h126v-346.62c-237.12 37.24-418.5 242.44-418.5 490 0 274 222 496 496 496s496-222 496-496z" />
<glyph unicode="&#xf0e1;" glyph-name="linkedin-in" d="M200.56 0.004h-185.76v598.2h185.76v-598.2zM107.58 679.804c-59.4 0-107.58 49.199-107.58 108.6 0 59.383 48.195 107.58 107.58 107.58s107.58-48.197 107.58-107.58c0-59.4-48.199-108.6-107.58-108.6zM895.8 0.004h-185.361v291.2c0 69.4-1.4 158.4-96.58 158.4-96.58 0-111.379-75.4-111.379-153.4v-296.2h-185.561v598.2h178.16v-81.6h2.6c24.801 47 85.381 96.6 175.76 96.6 188 0 222.56-123.799 222.56-284.6v-328.6h-0.199z" />
</font>
</defs>
</svg>
